Transcend DrivePro200

2014/05/20

納期かかったけど安かったので買ってみた。これも車のリアに取り付けるか、WiFiとRCA出力があるので自宅内に設置しようと考えている。SJ4000と似たようなビットレート。1080p/720pが選べる。
WiFiはおまけで、8畳の部屋の端から端で電波がギリギリ届かない。スマホのアプリがダメなのか、本体のWiFIがダメなのかわからないがブチブチ切れる上にロクに設定などもできない。電源入れ直した直後の数分間だけまとも。
RCAのビデオ出力も480iで本体の液晶がそのまま出力されているので品質的にも今ひとつ。

$ mediainfo TS_P0007.MOV
General
Complete name : TS_P0007.MOV
Format : QuickTime
Format/Info : Original Apple specifications
File size : 113 MiB
Duration : 1mn 0s
Overall bit rate : 15.7 Mbps

Video
ID : 1
Format : AVC
Format/Info : Advanced Video Codec
Format profile : High@L4.0
Format settings, CABAC : Yes
Format settings, ReFrames : 1 frame
Format settings, GOP : M=1, N=30
Codec ID : avc1
Codec ID/Info : Advanced Video Coding
Duration : 1mn 0s
Bit rate : 15.4 Mbps
Width : 1 920 pixels
Height : 1 080 pixels
Original height : 1 088 pixels
Display aspect ratio : 16:9
Frame rate mode : Constant
Frame rate : 29.970 fps
Standard : Component
Color space : YUV
Chroma subsampling : 4:2:0
Bit depth : 8 bits
Scan type : Progressive
Bits/(Pixel*Frame) : 0.247
Stream size : 110 MiB (97%)
Language : English
Color primaries : BT.601 NTSC
Transfer characteristics : BT.601
Matrix coefficients : BT.601

Audio
ID : 2
Format : PCM
Format settings, Endianness : Little
Format settings, Sign : Signed
Codec ID : sowt
Duration : 1mn 0s
Source duration : 1mn 0s
Bit rate mode : Constant
Bit rate : 384 Kbps
Channel(s) : 1 channel
Sampling rate : 24.0 KHz
Bit depth : 16 bits
Stream size : 2.75 MiB (2%)
Source stream size : 2.75 MiB (2%)
Language : English

Comments are closed.